conanlcg
超級版主

[更 早] [其他] [科幻] [BD-1080P] 弗蘭肯斯坦小姐 Lady.Frankenstein.1971.DC.1080p.BluRay.x264-GHOULS 7.65GB

-->

帖子完整標題:弗蘭肯斯坦小姐 Lady.Frankenstein.1971.DC.1080p.BluRay.x264-GHOULS 7.65GB




◎譯  名 弗蘭肯斯坦小姐 / Daughter of Frankenstein / Lady Frankenstein / Madame Frankenstein
◎片  名 La figlia di Frankenstein
◎年  代 1971
◎產  地 意大利
◎類  別 科幻 / 恐怖
◎語  言 英語
◎上映日期 1971-10-22
◎IMDb評分 5.0/10 from 1553 users
◎IMDb鏈接 http://www.imdb.com/title/tt0067321
◎豆瓣評分 0/10 from 0 users
◎豆瓣鏈接 https://movie.douban.com/subject/2225610/
◎片  長 85 分鐘(cut version)
◎導  演 Mel Welles
◎主  演 Joseph Cotten
      Rosalba Neri
      Paul Muller
      Renate Kasché
      Ada Pometti


◎標  簽 1971 | 被忽視的片子 | 美國電影 | 意大利 | 已收藏 | 下 | BDMV

◎簡  介

  暫無相關劇情介紹
Video
ID : 1
Format : AVC
Format/Info : Advanced Video Codec
Format profile : [email protected]
Format settings : CABAC / 4 Ref Frames
Format settings, CABAC : Yes
Format settings, Reference frames : 4 frames
Codec ID : V_MPEG4/ISO/AVC
Duration : 1 h 39 min
Bit rate : 9 784 kb/s
Width : 1 920 pixels
Height : 1 040 pixels
Display aspect ratio : 1.85:1
Frame rate mode : Constant
Frame rate : 24.000 FPS
Color space : YUV
Chroma subsampling : 4:2:0
Bit depth : 8 bits
Scan type : Progressive
Bits/(Pixel*Frame) : 0.204
Stream size : 6.77 GiB (88%)
Writing library : x264 core 157 r2932 303c484
Encoding settings : cabac=1 / ref=4 / deblock=1:-3:-3 / analyse=0x3:0x133 / me=umh / subme=9 / psy=1 / psy_rd=1.00:0.00 / mixed_ref=1 / me_range=24 / chroma_me=1 / trellis=1 / 8x8dct=1 / cqm=0 / deadzone=21,11 / fast_pskip=0 / chroma_qp_offset=-2 / threads=24 / lookahead_threads=4 / sliced_threads=0 / nr=0 / decimate=1 / interlaced=0 / bluray_compat=0 / constrained_intra=0 / bframes=8 / b_pyramid=2 / b_adapt=2 / b_bias=0 / direct=3 / weightb=1 / open_gop=0 / weightp=2 / keyint=250 / keyint_min=24 / scenecut=40 / intra_refresh=0 / rc_lookahead=60 / rc=2pass / mbtree=1 / bitrate=9784 / ratetol=1.0 / qcomp=0.60 / qpmin=0 / qpmax=69 / qpstep=4 / cplxblur=20.0 / qblur=0.5 / vbv_maxrate=62500 / vbv_bufsize=78125 / nal_hrd=none / filler=0 / ip_ratio=1.40 / aq=1:1.00
Default : Yes
Forced : No

Audio #1
ID : 2
Format : AC-3
Format/Info : Audio Coding 3
Commercial name : Dolby Digital
Codec ID : A_AC3
Duration : 1 h 39 min
Bit rate mode : Constant
Bit rate : 640 kb/s
Channel(s) : 2 channels
Channel layout : L R
Sampling rate : 48.0 kHz
Frame rate : 31.250 FPS (1536 SPF)
Bit depth : 16 bits
Compression mode : Lossy
Stream size : 453 MiB (6%)
Language : English
Service kind : Complete Main
Default : No
Forced : No

Audio #2
ID : 3
Format : AC-3
Format/Info : Audio Coding 3
Commercial name : Dolby Digital
Codec ID : A_AC3
Duration : 1 h 39 min
Bit rate mode : Constant
Bit rate : 640 kb/s
Channel(s) : 2 channels
Channel layout : L R
Sampling rate : 48.0 kHz
Frame rate : 31.250 FPS (1536 SPF)
Bit depth : 16 bits
Compression mode : Lossy
Stream size : 453 MiB (6%)
Language : Italian
Service kind : Complete Main
Default : Yes
Forced : No

Text
ID : 4
Format : UTF-8
Codec ID : S_TEXT/UTF8
Codec ID/Info : UTF-8 Plain Text
Duration : 1 h 38 min
Bit rate : 50 b/s
Count of elements : 976
Stream size : 36.0 KiB (0%)
Language : English
Default : Yes
Forced : No

Menu
00:00:00.000 : en:00:00:00.000
00:06:11.583 : en:00:06:11.583
00:15:35.167 : en:00:15:35.167
00:28:56.667 : en:00:28:56.667
00:36:53.542 : en:00:36:53.542
00:44:57.792 : en:00:44:57.792
00:57:05.833 : en:00:57:05.833
01:08:02.167 : en:01:08:02.167
01:21:17.250 : en:01:21:17.250
01:32:03.625 : en:01:32:03.625





1 個附件 售價 大小 下載 時間

Lady.Frankenstein.1971.DC.1080p.BluRay.x264-GHOULS.torrent 0 金幣 38.81K 336 次 10天前

#1樓
發帖時間:2019-10-05 11:39:33   |   回復數:1
911degrees
隱世仙人♂
非常感謝,謝謝分享
1天前 #2樓
游客組